#TITLE:Kinjirareta Asobi;
#SUBTITLE:- Rozen Maiden Opening;
#ARTIST:ALI PROJECT;
#TITLETRANSLIT:;
#SUBTITLETRANSLIT:;
#ARTISTTRANSLIT:;
#CREDIT:Xion Steel;
#BANNER:Rozen Maiden.png;
#BACKGROUND:Rozen Maiden bg.png;
#LYRICSPATH:Rozen Maiden - Kinjirareta Asobi.lrc;
#CDTITLE:SS credit logo.png;
#MUSIC:Rozen Maiden - Kinjirareta Asobi.mp3;
#OFFSET:-0.090;
#SAMPLESTART:72.440;
#SAMPLELENGTH:15.020;
#SELECTABLE:YES;
#BPMS:0.000=121.020;
#STOPS:;
#BGCHANGES:;
// cache tags:
#FIRSTBEAT:2.000;
#LASTBEAT:523.500;
#SONGFILENAME:songs/Otaku's Dream 3rd Anime Mix/[Xion Steel] Kinjirareta Asobi - Rozen Maiden OP/Rozen Maiden - Kinjirareta Asobi.sm;
#HASMUSIC:1;
#HASBANNER:1;
#MUSICLENGTH:267.314;
// end cache tags

//---------------dance-single - Blank----------------
#NOTES:
     dance-single:
     Blank:
     Challenge:
     10:
     0.831,0.955,0.995,0.928,0.486,1041.000,266.000,248.000,0.000,0.000:

0000
0000
0000
0000
0000
0000
0000
0000
0000
0000
0000
0000
0000
0000
0000
0000
2002
0000
0000
0000
0000
0000
0000
0000
0000
0000
0000
0000
0000
0000
0000
0003
,
0002
0000
0000
0000
0000
0000
0000
0000
0000
0000
0000
0000
0000
0000
0000
0003
0200
0000
0000
0000
0000
0000
0000
0000
0000
0000
0000
0000
0000
0000
0000
0300
,
0020
0000
0000
0000
0000
0000
0000
0000
0000
0000
0000
0000
0000
0000
0000
3030
2020
0000
0000
0000
0000
0000
0000
0000
0000
0000
0000
0000
0000
0000
0000
3000
,
0200
0000
0000
0000
0000
0000
0000
0000
0000
0000
0000
0000
0000
0000
0000
0300
2000
0000
0000
0000
0000
0000
0000
0000
0000
0000
0000
0000
0000
0000
0000
3000
,
0002
0000
0000
0000
0000
0000
0000
0000
0000
0000
0000
0000
0000
0000
0000
0033
0220
0000
0000
0000
0000
0000
0000
0000
0000
0000
0000
0000
0000
0000
0000
0000
,
0000
0000
0000
0000
0000
0000
0000
0000
0000
0000
0000
0000
0000
0000
0000
0330
1001
0000
0000
0000
0010
0000
1000
0000
0100
0000
0000
0000
0110
0000
0000
0000
,
1001
0000
0000
0010
0100
0010
1100
0000
0010
0100
0010
0100
0010
0001
1000
0100
,
0010
0001
0100
0010
1000
0100
0010
0001
1000
0010
0100
0000
0100
1000
0100
0000
,
0001
0010
0100
0000
1010
0000
0000
0000
0010
0001
1000
0000
0100
0010
1000
0000
,
0100
1000
0010
0000
1001
0000
0000
0000
0010
0100
0001
0000
0010
0001
0100
0010
,
1001
0000
0000
0000
0110
0000
0000
0000
2002
0000
0000
0000
0000
0000
0000
3003
1002
0000
0100
0000
0010
0000
1000
0000
0100
0000
0010
0000
1000
0000
0100
0000
,
0020
0000
0000
0000
0000
0000
0033
0000
0100
0010
0001
0000
0010
0100
1000
0000
,
0100
0001
0100
0000
1001
0000
0000
0000
0100
0010
0100
0000
1000
0010
0001
0000
,
0010
0100
0001
0000
0220
0000
0000
0000
0330
1000
0001
0010
0202
0000
0000
0000
,
0303
0100
1000
0100
0022
0000
0000
0000
0033
0001
0010
0100
0010
1000
0011
0000
,
0220
0000
0000
0000
0000
0000
0000
0030
0001
0000
0010
0000
0010
0000
0000
0010
,
0301
0000
1001
0000
0110
0000
0000
0100
0010
0000
1100
0000
0011
0000
0000
0000
,
0110
0000
0000
0000
0011
0000
0000
0000
1100
0000
0000
0000
0000
0000
0100
0000
1002
0000
0000
0003
1200
0000
0000
0300
0210
0000
0000
0300
0021
0000
0000
0030
,
1002
0000
0000
0000
0000
0000
0000
0003
2100
0000
0000
3000
0210
0000
0000
0300
1002
0000
0000
0003
2100
0000
0000
3000
0102
0000
0000
0000
0100
0000
0000
0000
,
0010
0000
1000
0100
0013
0000
0000
0000
1002
0000
0010
0000
0100
0000
0013
0000
,
1100
0000
0000
0000
2010
0000
0000
0000
0001
0000
0000
3000
0110
0000
0000
0000
0100
0000
0000
0000
0010
0000
0000
0000
1000
0000
0000
0000
0100
0000
0010
0000
,
0000
0000
0010
0000
0100
0000
0000
0000
1001
0000
0000
0000
0101
0000
0000
0000
2010
0000
0000
0000
0100
0000
0000
0000
0010
0000
0000
3000
0101
0000
0000
0000
,
0120
0000
0000
0000
1000
0000
0000
0000
0100
0000
0000
0030
1001
0000
0000
0000
0010
0000
0000
0000
0100
0000
0000
0000
1000
0000
0000
0000
0100
0000
0001
0000
,
0000
0000
0010
0000
1000
0000
0000
0000
0110
0000
0000
0000
1000
0000
0000
0000
0102
0000
0000
0000
0010
0000
0000
0000
1000
0000
0000
0003
1010
0000
0000
0000
,
0012
0000
0000
0000
0100
0000
0000
0000
0100
0000
0000
0003
1100
0000
0000
0000
0010
0000
0000
0000
0100
0000
0000
0000
0001
0000
0000
0000
0010
0000
0001
0000
,
0000
0000
1000
0000
0010
0000
0000
0000
1100
0000
0000
0000
1001
0000
0000
0000
1002
0000
0000
0000
1000
0000
0000
0000
0100
0000
0000
0003
1010
0000
0000
0000
,
2010
0000
0000
0000
0100
0000
0000
0000
0010
0000
0000
3000
0101
0000
0000
0000
1010
0000
0000
0000
0100
0000
0000
0000
0010
0000
0000
0000
1001
0000
0000
0000
,
0220
0000
0000
0330
2002
0000
0000
0000
0000
0000
0000
3003
1010
0000
0000
0000
0120
0000
0000
0000
0100
0000
0000
0000
1000
0000
0000
0000
0001
0000
0000
0000
,
0100
0000
0000
0030
1100
0000
0000
0000
0110
0000
0000
0000
1000
0000
0100
0000
0002
0000
0000
0000
0200
0000
0000
0300
0020
0000
0000
0030
0200
0000
0000
0300
,
2000
0000
0000
0000
0000
0000
0000
3003
0110
0000
0000
0000
1100
0000
0000
0000
2001
0000
0000
0000
0100
0000
0000
0000
0001
0000
0000
0000
0100
0000
0000
0000
,
0010
0000
0000
3000
1100
0000
0000
0000
0101
0000
0000
0000
1000
0000
0010
0000
1200
0000
0000
0000
0002
0000
0000
0003
0020
0000
0000
0030
2000
0000
0000
3000
,
0020
0000
0000
0000
0000
0000
0000
0330
1001
0000
0000
0000
1100
0000
0000
0000
0012
0000
0000
0000
0100
0000
0000
0000
1000
0000
0000
0003
1100
0000
0000
0000
,
0120
0000
0000
0000
1000
0000
0000
0000
0001
0000
0000
0030
0101
0000
0000
0000
0120
0000
0000
0000
2000
0000
0000
3000
0200
0000
0000
0300
0002
0000
0000
0003
,
0200
0000
0000
0300
2000
0000
0000
3030
0101
0000
0010
0000
0100
0000
0010
0000
2000
0000
0000
0000
0010
0000
0000
0000
0100
0000
0000
3000
0011
0000
0000
0000
,
1020
0000
0000
0000
0100
0000
0000
0000
1000
0000
0000
0030
0110
0000
0000
0000
1002
0000
0000
0000
1000
0000
0000
0000
0100
0000
0000
0000
0010
0000
0000
0000
,
0100
0000
0000
0000
0010
0000
0000
0003
1100
0000
0010
0000
0001
0000
0020
0000
0000
0000
0000
0000
0000
0000
0000
0000
0000
0000
0000
0000
1000
0000
0001
0000
,
2000
0000
0000
3000
0200
0000
0000
0300
0002
0000
0000
0003
2000
0000
0000
3030
0001
0000
0010
0000
0100
0000
0000
0000
0010
0000
1000
0000
0100
0000
0000
0000
,
1000
0100
0001
0000
0110
0000
0000
0000
0010
0100
0001
0000
0001
0010
1000
0000
,
0100
0010
0100
0000
1010
0000
0000
0000
0100
0010
1000
0000
1000
0100
0010
0100
,
0011
0000
0000
0000
1100
0000
0000
0000
0220
0000
0000
0000
0000
0000
0000
0330
1002
0000
0100
0000
1000
0000
0100
0000
0010
0000
0100
0000
0010
0000
0100
0000
,
2000
0000
0000
0000
0000
0000
0000
0000
0000
0000
0000
0000
0000
0000
0000
3003
0100
0000
0010
0000
0100
0000
0000
0000
1000
0000
0001
0000
0010
0000
0000
0000
,
0100
0010
0100
0000
1001
0000
0000
0000
0010
0001
0010
0000
0100
0001
1000
0000
,
0100
0000
0010
0000
0001
0000
0000
0000
0202
0000
0000
0000
0000
0000
0000
0000
0000
0303
0010
0000
0100
0000
0010
0000
1100
0000
0000
0000
0000
0000
0000
0000
,
0000
0000
1000
0000
0100
0000
0010
0000
2002
0000
0000
0000
0000
0000
0000
0000
0000
3003
0100
0000
0010
0000
0100
0000
0001
0000
1000
0000
0011
0000
0000
0000
,
2020
0000
0000
0000
0000
0000
0000
3000
0100
0000
0001
0000
0001
0000
0000
0100
,
1000
0000
0000
0030
1100
0000
0000
0000
0011
0000
0000
0000
0000
0000
0100
0000
0010
0000
0000
0000
1100
0000
0000
0000
1100
0000
0000
0000
0000
0000
0000
0000
,
1001
0000
0000
0000
1001
0000
0000
0000
1001
0000
0000
0000
0000
0000
0100
0000
0020
0000
0000
0000
0000
0000
0000
0030
0002
0000
0000
0000
0000
0000
0100
0003
,
2000
0000
0000
0000
0000
0000
0000
3000
0002
0000
0000
0000
0000
0000
0000
0003
0200
0000
0000
0000
0000
0000
0000
0300
2000
0000
0000
0000
0000
0000
0010
3000
,
0200
0000
0000
0000
0000
0000
0000
0300
0002
0000
0000
0000
0000
0000
0000
0003
1010
0000
0000
0000
0110
0000
0000
0000
1001
0000
0000
0000
1010
0000
0000
0000
,
0110
0000
0011
1100
0011
1001
0220
0000
,
0000
0000
0000
0000
0000
0000
0000
0000
0000
0000
0000
0000
0000
0000
0000
0330
1001
0000
0100
0000
0010
0000
1000
0000
0100
0000
0010
0000
0001
0000
1000
0000
,
0100
0000
1000
0000
0100
0000
1000
0000
0010
0000
0100
0000
0001
0000
0010
0000
0001
0000
0000
0000
2002
0000
0000
0000
0000
0000
0000
3003
2020
0000
0000
3030
,
0202
0000
0000
0303
0220
0000
0000
0330
2002
0000
0000
0000
0000
0000
0000
3003
0110
0000
1000
0000
0100
0000
0010
0000
0100
0000
0001
0000
1000
0000
0100
0000
,
0010
0000
1000
0000
0001
0000
0100
0000
0010
0000
0001
0000
0010
0000
0100
0000
0000
0000
0000
0000
0102
0000
0000
0000
0000
0000
0000
0000
2000
0000
0000
3000
,
0200
0000
0000
0000
0000
0000
0000
0300
0020
0000
0000
0000
0000
0000
0000
0033
1100
0000
0000
0000
0000
0000
0000
0000
1000
0000
0100
0000
0010
0000
0100
0000
,
2002
0000
0000
0000
0000
0000
0000
0000
0000
0000
0000
0000
0000
0000
0000
3003
1010
0000
0000
0000
0000
0000
0000
0000
0100
0000
0010
0000
0100
0000
1000
0000
,
0022
0000
0000
0000
0000
0000
0000
0033
2200
0000
0000
0000
0000
0000
0000
3300
2001
0000
0000
0000
0100
0000
0000
0000
0010
0000
0000
3000
0110
0000
0000
0000
,
0102
0000
0000
0000
0010
0000
0000
0000
0100
0000
0000
0003
0110
0000
0000
0000
0001
0000
0000
0000
1000
0000
0000
0000
0100
0000
0000
0000
0010
0000
0001
0000
,
0000
0000
0100
0000
1000
0000
0000
0000
1001
0000
0000
0000
0110
0000
0000
0000
0201
0000
0000
0000
1000
0000
0000
0000
0001
0000
0000
0300
0110
0000
0000
0000
,
2100
0000
0000
0000
0010
0000
0000
0000
0001
0000
0000
3000
0110
0000
0000
0000
0001
0000
0000
0000
1000
0000
0000
0000
0010
0000
0000
0000
0100
0000
1000
0000
,
0000
0000
1000
0000
0100
0000
0000
0000
1001
0000
0000
0000
0010
0000
0000
0000
0021
0000
0000
0000
0001
0000
0000
0000
0100
0000
0000
0030
0110
0000
0000
0000
,
1002
0000
0000
0000
0010
0000
0000
0000
0100
0000
0000
0003
1010
0000
0000
0000
0001
0000
0000
0000
0100
0000
0000
0000
0010
0000
0000
0000
1000
0000
0100
0000
,
0000
0000
0100
0000
1000
0000
0100
0000
0010
0000
0000
0000
1001
0000
0000
0000
0210
0000
0000
0000
0001
0000
0000
0000
0010
0000
0000
0300
1010
0000
0000
0000
,
0102
0000
0000
0000
1000
0000
0000
0000
0100
0000
0000
0003
1010
0000
0000
0000
0201
0000
0000
0000
1000
0000
0000
0000
0001
0000
0000
0300
1100
0000
0000
0000
,
0220
0000
0000
0330
2002
0000
0000
0000
0000
0000
0000
3003
1001
0000
0000
0000
2100
0000
0000
0000
0010
0000
0000
0000
0100
0000
0000
0000
0001
0000
0000
0000
,
0010
0000
0000
3000
1001
0000
0000
0000
0110
0000
0000
0000
0010
0000
0100
0000
2000
0000
0000
0000
0200
0000
0000
0300
0020
0000
0000
0030
0002
0000
0000
0003
,
0020
0000
0000
0000
0000
0000
0000
3030
0110
0000
0000
0000
1001
0000
0000
0000
0120
0000
0000
0000
0100
0000
0000
0000
1000
0000
0000
0000
0001
0000
0000
0000
,
0100
0000
0000
0030
0110
0000
0000
0000
1000
0000
0100
0000
0010
0000
0100
0000
1020
0000
0000
0000
0002
0000
0000
0003
0200
0000
0000
0300
2000
0000
0000
3000
,
0002
0000
0000
0000
0000
0000
0000
0033
1100
0000
0000
0000
0110
0000
0000
0000
1002
0000
0000
0000
1000
0000
0000
0000
0100
0000
0000
0003
1010
0000
0000
0000
,
2100
0000
0000
0000
0100
0000
0000
0000
0001
0000
0000
3000
0011
0000
0000
0000
0201
0000
0000
0000
0020
0000
0000
0030
0002
0000
0000
0003
2000
0000
0000
3000
,
0020
0000
0000
0030
2000
0000
0000
3300
0101
0000
1000
0000
0010
0000
0100
0000
2000
0000
0000
0000
0000
0000
0000
0000
0000
0000
0000
3000
0110
0000
0000
0000
,
0210
0000
0000
0000
0000
0000
0000
0000
0000
0000
0000
0300
0011
0000
0000
0000
0202
0000
0000
0000
0000
0000
0000
0000
0000
0000
0000
0000
0000
0000
0000
0000
,
0000
0000
0000
0000
0000
0000
0000
0303
1000
0000
0100
0000
0010
0000
0001
0000
0200
0000
0000
0000
0020
0000
0000
0030
2000
0000
0000
3300
0010
0000
0010
0000
,
2002
0000
0000
3003
0020
0000
0000
0030
0200
0000
0000
0300
2000
0000
0000
3000
0001
0000
0010
0000
1000
0000
0000
0000
0100
0000
0010
0000
1000
0000
0000
0000
,
0100
0010
0001
0000
1010
0000
0000
0000
0100
0010
1000
0000
0100
0001
1000
0000
,
0010
0001
0010
0000
1001
0000
0000
0000
0100
0010
0001
0000
0100
0010
1000
0100
,
1001
0000
1001
0000
0101
0000
0000
0000
2010
0100
0010
0001
0010
0100
0010
0001
,
0020
0000
0000
0000
0000
0000
0000
0000
0000
0000
0000
0000
0000
0000
0000
3030
0100
0000
0010
0000
1000
0000
0000
0000
0110
0000
0000
0000
0101
0000
0000
0000
,
0001
0010
1000
0000
0110
0000
0000
0000
0100
1000
0010
0000
0001
0100
0010
0000
,
1000
0100
0010
0000
2020
0000
0000
0000
0000
3030
0100
0001
0110
0000
0000
0000
,
0000
0100
0010
0100
2020
0000
0000
0000
3030
0001
0010
0100
1000
0100
0001
1000
,
0202
0000
0000
0000
0000
0000
0000
0003
0010
0000
0001
0000
0001
0000
0000
0010
,
0001
0000
0000
0300
1010
0000
0000
0000
0110
0000
0000
0000
0000
0000
1000
0000
0001
0000
0000
0000
0110
0000
0000
0000
1100
0000
0000
0000
0000
0000
0000
0000
,
0011
0000
0000
0000
0110
0000
0000
0000
1100
0000
0000
0000
0000
0000
0100
0000
0020
0000
0000
0000
0000
0000
0000
0030
0002
0000
0000
0000
0000
0000
0100
0003
,
2000
0000
0000
0000
0000
0000
0000
3000
0200
0000
0000
0000
0000
0000
0000
0300
0002
0000
0000
0000
0000
0000
0000
0003
0020
0000
0000
0000
0000
0000
0100
0030
,
0002
0000
0000
0000
0000
0000
0000
0003
0200
0000
0000
0000
0000
0000
0000
0300
1010
0000
0000
0000
0110
0000
0000
0000
0101
0000
0000
0000
1010
0000
0000
0000
,
0101
0000
1001
1100
0110
0011
2010
0000
,
0010
0000
0001
0000
0010
0000
0100
0000
0010
0000
0001
0000
0010
0000
0100
3000
1010
0000
0100
0000
0001
0000
0100
0000
0010
0000
1000
0000
0100
0000
0010
0000
,
0100
0000
0001
0000
0100
0000
1000
0000
0010
0000
1000
0000
0100
0000
1000
0000
0010
0000
0000
0000
2002
0000
0000
0000
0000
0000
0000
3003
0220
0000
0000
0330
,
0022
0000
0000
0033
2002
0000
0000
3003
2200
0000
0000
0000
0000
0000
0000
3300
0101
0000
0010
0000
0100
0000
1000
0000
0100
0000
0010
0000
0100
0000
0001
0000
,
1000
0000
0010
0000
0100
0000
0001
0000
0100
0000
1000
0000
0010
0000
0100
0000
0010
0000
0000
0000
2010
0000
0000
0000
0000
0000
0000
0000
0002
0000
0000
0003
,
0020
0000
0000
0000
0000
0000
0000
0030
0200
0000
0000
0000
0000
0000
0000
3300
0101
0000
0010
0000
1000
0000
0100
0000
0001
0000
0010
0000
0100
0000
1000
0000
,
0010
0000
0100
0000
0001
0000
1000
0000
0010
0000
0100
0000
1000
0000
0010
0000
0100
0000
0000
0000
1002
0000
0000
0000
0000
0000
0000
0003
2010
0000
0000
3000
,
0102
0000
0000
0003
0210
0000
0000
0300
2002
0000
0000
0000
0000
0000
0000
3003
0101
0000
0010
0000
0001
0000
0010
0000
0100
0000
0001
0000
1000
0000
0100
0000
,
1000
0000
0010
0000
0001
0000
0100
0000
1000
0000
0010
0000
1000
0000
0001
0000
0100
0000
0000
0000
0012
0000
0000
0000
0000
0000
0000
0000
0200
0000
0000
0300
,
2000
0000
0000
0000
0000
0000
0000
3000
0020
0000
0000
0000
0000
0000
0000
0033
1010
0000
0000
0000
0000
0000
0000
0000
0010
0000
0100
0000
0001
0000
1000
0000
,
0220
0000
0000
0000
0000
0000
0000
0000
0000
0000
0000
0000
0000
0000
0000
0330
0011
0000
0000
0000
0000
0000
0000
0000
0100
0000
0010
0000
1000
0000
0100
0000
,
0022
0000
0000
0000
0000
0000
0000
0033
2002
0000
0000
0000
0000
0000
0000
3003
1010
0000
0000
0000
0100
0000
0010
0000
0001
0000
0000
0000
0010
0000
0000
0000
,
1100
0000
0000
0010
0100
0001
1100
0000
0010
0100
0010
0100
0001
1000
0010
0100
,
0001
1000
0100
0010
1000
0100
0010
0001
0100
0010
1000
0000
0100
0001
0010
0000
,
0010
0100
1000
0000
1010
0000
0000
0000
0001
0100
0010
0000
0100
0010
0001
0000
,
0010
0100
0001
0000
1010
0000
0000
0000
0100
0010
0100
0000
1000
0100
0010
0001
,
0010
0000
1010
0000
0101
0000
0000
0000
0100
0001
1000
0100
1000
0001
0100
0010
,
0002
0000
0000
0000
0000
0000
0000
0003
0100
0010
0001
0000
0010
0100
0001
0000
,
1000
0010
0001
0000
1010
0000
0000
0000
0001
0010
1000
0000
0100
0001
0010
0000
,
1000
0001
1000
0000
0220
0000
0000
0000
0330
1000
0100
0010
1001
0000
0000
0000
,
0000
0100
1000
0010
0101
0000
0000
0000
0000
0010
0100
1000
0001
0010
1100
0000
,
0220
0000
0000
0000
0000
0000
0000
0330
0100
1000
0001
0000
0010
0100
1000
0000
,
0001
1000
0001
0000
0110
0000
0000
0000
0100
0001
1000
0000
0100
0001
0100
0000
,
0010
1000
0010
0000
0110
0000
0000
0000
0010
0100
0001
0000
0010
0100
0001
0010
,
0100
0000
0000
0000
0220
0000
0000
0330
2002
0000
0000
0000
0000
0000
3003
0000
0100
0000
0010
0000
1000
0000
0001
0000
0100
0000
0010
0000
1000
0000
0100
0000
,
0002
0000
1000
0000
0100
0000
1000
0003
0010
0001
1000
0000
0100
0010
0001
0000
,
0010
1000
0100
0000
0110
0000
0000
0000
0010
0100
1000
0000
0100
0010
0001
0000
,
0100
0010
0100
0000
0220
0000
0000
0000
0330
0100
1000
0100
0010
0000
0000
0000
,
0000
0010
0100
0010
0100
0010
0000
0000
0000
0100
0010
0001
0010
0100
1000
0001
,
0220
0000
0000
0000
0000
0000
0000
0300
1000
0000
0100
0000
0100
0000
0000
0100
,
0001
0000
0000
0030
1010
0000
0000
0000
1100
0000
0000
0000
0000
0000
0001
0000
0010
0000
0000
0000
1100
0000
0000
0000
0110
0000
0000
0000
0000
0000
0000
0000
,
0011
0000
0000
0000
1001
0000
0000
0000
1100
0000
0000
0000
0000
0000
0100
0000
0002
0000
0000
0000
0000
0000
0000
0003
2000
0000
0000
0000
0000
0000
0010
3000
,
0200
0000
0000
0000
0000
0000
0000
0300
0002
0000
0000
0000
0000
0000
0000
0003
2000
0000
0000
0000
0000
0000
0000
3000
0200
0000
0000
0000
0000
0000
0010
0300
,
0002
0000
0000
0000
0000
0000
0000
0003
0200
0000
0000
0000
0000
0000
0000
0300
1010
0000
0000
0000
0110
0000
0000
0000
0101
0000
0000
0000
1010
0000
0000
0000
,
0110
0000
1001
0110
1100
0110
0022
0000
,
0000
0000
0000
0000
0000
0000
0000
0000
0000
0000
0000
0000
0000
0000
0000
0033
1200
0000
0000
0000
0010
0000
0000
0000
0001
0000
0000
0000
0010
0000
0000
0000
,
0001
0000
0000
0000
1000
0000
0000
0000
0010
0000
0000
0000
0001
0000
0000
0300
0102
0000
0000
0000
1000
0000
0000
0000
0100
0000
0000
0000
0010
0000
0000
0003
,
2000
0000
0000
0000
0010
0000
0000
0000
0100
0000
0000
0000
0001
0000
0000
3000
0120
0000
0000
0000
1000
0000
0000
0030
0002
0000
0000
0000
0100
0000
0000
0003
,
0020
0000
0000
0000
0001
0000
0000
0030
0200
0000
0000
0000
0010
0000
0000
0300
2100
0000
0000
0000
0000
0000
0000
0000
0000
0000
0000
0000
0000
0000
0000
0000
,
0020
0000
0000
0000
0000
0000
0000
0000
0000
0000
0000
0000
0000
0000
0000
0030
0200
0000
0000
0000
0000
0000
0000
0000
0000
0000
0000
0000
0000
0000
0000
0300
,
0002
0000
0000
0000
0000
0000
0000
0000
0000
0000
0000
0000
0000
0000
0000
3003
2002
0000
0000
0000
0000
0000
0000
0000
0000
0000
0000
0000
0000
0000
0000
3000
,
0020
0000
0000
0000
0000
0000
0000
0000
0000
0000
0000
0000
0000
0000
0000
0030
0200
0000
0000
0000
0000
0000
0000
0000
0000
0000
0000
0000
0000
0000
0000
0300
,
2000
0000
0000
0000
0000
0000
0000
0000
0000
0000
0000
0000
0000
0000
0000
3003
2002
0000
0000
0000
0000
0000
0000
0000
0000
0000
0000
0000
0000
0000
0000
0000
,
0000
0000
0000
0000
,
0000
0000
0000
0000
0000
0000
0000
3003
;
